iTunes

1+1

iTunes

мы

iTunes

1

iTunes

Чернобыль

iTunes

Ральф против интернета

Лицензия

ПШазам

Лицензия

Игра престолов

Лицензия

30
pack

ВАЖНО

!!Акция!!

Alien_RageХит недели

RePack

Resident Evil 21

ИГРА 18+

pack

RePack

Metro:Exodus

!!Акция!!

Alien_Rage

RePack

fifa19

RePack

Assassins Creed: Odyssey

RePack

NEED FOR SPEED™ PAYBACK

3 сезон

9 сезон

Бесстыжие 9 сезон

Все сериалы

все сериалы на PB.wtf

RePack

FAR CRY 5
Ребята, катастрофически не хватает 7730р. для оплаты серверов за ИЮЛЬ (всвязи с блокировками трафик упал в 3 раза), 1-2р., выручайте.
  

Любимая дочь папы Карло (Армен Назикян) [2008 г., драма, DVDRip, Оригинал] piratbit.cc

Любимая дочь папы Карло через торрент piratbit.cc

Размер: 1.37 GB | Добавлен: 6 лет 9 мес. назад | Торрент скачан:31 раз
Скачать  

11-11-2012 15:45 Любимая дочь папы Карло Скачать торрент  

Любимая дочь папы Карло

Год выпуска: 2008
Страна: Россия
Жанр: драма
Продолжительность: 01:35:56
Перевод: Оригинал

Режиссер: Армен Назикян
Продюссер: Сергей Каратаев, Виктор Умнов
Сценарий: Игорь Агеев

Мировой рейтинг IMDB


В ролях: Андрей Смоляков, Татьяна Казючиц, Руслан Курик, Александр Саюталин, Виктор Васильев, Николай Рябычин, Денис Тарасенко, Андрей Шилько, Анна Кисель, Алёна Козырева

Описание: Константин Воронцов, по прозвищу «Папа Карло», владелец крупной транспортной компании, не в силах смириться с тем, что единственная любимая дочь Катя выходит замуж наперекор его воле. Желая все вернуть назад, возмущенный своенравием дочери, Константин решает подставить новоиспеченного зятя Максима с целью упрятать его за решетку. Ослепленный ревностью «Папа Карло» забывает об одном: дочь сама имеет право решать свою судьбу.

Качество: DVDRip
Формат: AVI
Видео кодек: XviD
Аудио кодек: AC3
Видео: 720x400 (1.80:1), 25 fps, XviD build 50 ~1587 kbps avg, 0.22 bit/pixel
Аудио#1: Русский: 48 kHz, AC3 Dolby Digital, 3/2 (L,C,R,l,r) + LFE ch, ~448 kbps
Общее
Полное имя : F:ЗакачкиLubimaya.Doch.Papy.Karlo.2008.DVDRip.avi
Формат : AVI
Формат/Информация : Audio Video Interleave
Размер файла : 1,37 Гбайт
Продолжительность : 1 ч. 35 м.
Общий поток : 2045 Кбит/сек
Программа кодирования : VirtualDubMod 1.5.10.3 | www.virtualdub-fr.org || (build 2550/release)
Библиотека кодирования : VirtualDubMod build 2550/release

Видео
Идентификатор : 0
Формат : MPEG-4 Visual
Профиль формата : Advanced Simple@L5
Параметр BVOP формата : 1
Параметр QPel формата : Нет
Параметр GMC формата : Без точки перехода
Параметр матрицы формата : Default (MPEG)
Идентификатор кодека : XVID
Идентификатор кодека/Подсказка : XviD
Продолжительность : 1 ч. 35 м.
Битрейт : 1587 Кбит/сек
Ширина : 720 пикселей
Высота : 400 пикселей
Соотношение сторон : 16:9
Частота кадров : 25,000 кадров/сек
Цветовое пространство : YUV
Субдискретизация насыщенности : 4:2:0
Битовая глубина : 8 бит
Тип развёртки : Прогрессивная
Метод сжатия : С потерями
Бит/(Пиксели*Кадры) : 0.220
Размер потока : 1,06 Гбайт (78%)
Библиотека кодирования : XviD 1.2.1 (UTC 2008-12-04)

Аудио
Идентификатор : 1
Формат : AC-3
Формат/Информация : Audio Coding 3
Расширение режима : CM (complete main)
Параметр Endianness формата : Big
Идентификатор кодека : 2000
Продолжительность : 1 ч. 35 м.
Вид битрейта : Постоянный
Битрейт : 448 Кбит/сек
Каналы : 6 каналов
Расположение каналов : Front: L C R, Side: L R, LFE
Частота : 48,0 КГц
Битовая глубина : 16 бит
Метод сжатия : С потерями
Размер потока : 307 Мбайт (22%)
Выравнивание : Разделение по промежуткам
Продолжительность промежутка : 40 мс. (1,00 видеокадр)
Время предзагрузки промежутка : 500 мс.


Любимая дочь папы Карло скачать торрент


piratbit.cc



Скачать Любимая дочь папы Карло через торрент http://i48.fastpic.ru/big/2012/1111/1a/2879535a81296c0606fad78e6cfa8b1a.jpg Скачать фильм Любимая дочь папы Карло через торрент бесплантно в хорошем качестве Описание: Константин Воронцов, по прозвищу «Папа Карло», владелец крупной транспортной компании, не в силах смириться с тем, что ... 5 10 1
Info! Золотая раздача, скачанное не засчитывается.
Торрент: Зарегистрирован [2012-11-11 15:45] · скачан: 31 раз
Статус: √ проверено
Размер: 1.37 GB
Как cкачать? Как скачать Любимая дочь папы Карло через торрент | qTorrent


>> Регистрируемся здесь <<






Отзывы и комментарии о схеме читаем и пишем здесь: ---> Отзывы и комментарии о схеме

Новые благодарочки в телеграм довольных пользователей:
скриншот   скриншот   скриншот   скриншот   скриншот

11-11-2012 17:23 Любимая дочь папы Карло Скачать торрент  

Фу. Ну и гадость.piratbit.cc



    Дорогой пользователь! Огромная просьба, поблагодарите релизера, оцените раздачу и оставьте свои комментарий, если Вы скачали Любимая дочь папы Карло через торрент бесплатно! Внесите свою лепту в развитие PiratBit!
    Комментировать посты могут только пользователи прошедшие не сложную регистрацию
    Показать сообщения:    

    Любимая дочь папы Карло через торрент
    Скачать бесплатно Любимая дочь папы Карло
    Любимая дочь папы Карло скачать торрент
    Любимая дочь папы Карло смотреть онлайн
    Cкачать фильм Любимая дочь папы Карло бесплатно
    Любимая дочь папы Карло скачать торрент в хорошем качестве
    Любимая дочь папы Карло смотреть онлайн бесплатно в хорошем качестве


    Вы не можете начинать темы
    Вы не можете отвечать на сообщения
    Вы не можете редактировать свои сообщения
    Вы не можете удалять свои сообщения
    Вы не можете голосовать в опросах
    Вы не можете прикреплять файлы к сообщениям
    Вы можете скачивать файлы