Лицензия

30

iTunes

мы

iTunes

1

1 сезон

Чернобыль

1 сезон

Ральф против интернета

MVO

Покемон. Детектив Пикачу

8 сезон

Игра престолов

iTunes

1+1

ИГРА 18+

pack

ВАЖНО

!!Акция!!

Alien_RageХит недели

RePack

Resident Evil 21
pack

RePack

Metro:Exodus

!!Акция!!

Alien_Rage

RePack

fifa19

RePack

Assassins Creed: Odyssey

RePack

NEED FOR SPEED™ PAYBACK

3 сезон

9 сезон

Бесстыжие 9 сезон

Все сериалы

все сериалы на PB.wtf

RePack

FAR CRY 5
Ребята, катастрофически не хватает 2730р. для оплаты серверов за МАЙ (всвязи с блокировками трафик упал в 3 раза), 1-2р., выручайте.
  

Страсти по Анжелике (Александр Полынников) [1993 г., комедия, DVDRip, Оригинал] piratbit.cc

Страсти по Анжелике через торрент piratbit.cc

Размер: 1.37 GB | Добавлен: 6 лет 6 мес. назад | Торрент скачан:84 раза
Скачать  

28-11-2012 16:20 Страсти по Анжелике Скачать торрент  

Страсти по Анжелике

Год выпуска: 1993
Страна: Россия, Украина
Жанр: комедия
Продолжительность: 01:06:08
Перевод: Оригинал

Режиссер: Александр Полынников
Продюссер: Владимир Храпунов, Эльвира Потапенко
Сценарий: Анатолий Шайкевич, Тамара Третьякова

зрителям, достигшим 16 лет

http://www.kinopoisk.ru/film/41090/

В ролях: Анна Самохина, Сергей Твердохлебов, Анатолий Равикович, Сергей Лосев, Александр Лыков, Андрей Градов, Андрей Смоляков, Николай Трофимов, Тамара Лебедева, Татьяна Бедова, Ольга Волкова, Елена Воробей, Александр Самохин, Олег Ефремов, Николай Федорцов, Александр Трофимов, Георгий Клюев, Елена Смолина.

Описание: Эта достоверная история произошла в небольшом городке где-то в глубине России. Официантка Анжелика обладает странной особенностью — во время грозы в ней просыпается необузданное сексуальное желание. Многие мужчины предприняли попытки воспользоваться этим «природным явлением»…

Доп. информация: Анна Самохина в роли Анжелики, официантки, обладающей странной особенностью — во время грозы в ней просыпаются необузданные сексуальные желания. Многие мужчины предпринимали попытку воспользоваться этим "природным явлением", и некоторые жестоко поплатились. Так один из них был осужден за изнасилование, так как "потерпевшая" уверяла, что ничего не помнит, хотя сама попросила его проводить до дома. На этой ее уникальной особенности и построена незатейливая комедия.

Качество: DVDRip
Формат: AVI
Видео кодек: XviD
Аудио кодек: AC3
Видео: MPEG-4 Visual, XviD, 2723 Кбит/сек, 720х544 пикселя, 25,000 кадров/сек
Аудио#1: AC-3, 224 Кбит/сек, 2 канала, 48,0 КГц, Russian





Формат : AVI
Формат/Информация : Audio Video Interleave
Размер файла : 1,37 Гбайт
Продолжительность : 1 ч. 6 м.
Общий поток : 2956 Кбит/сек
Программа кодирования : VirtualDubMod 1.5.10.2 (build 2540/release)
Библиотека кодирования : VirtualDubMod build 2540/release

Видео
Идентификатор : 0
Формат : MPEG-4 Visual
Профиль формата : Advanced Simple@L5
Параметр BVOP формата : 1
Параметр QPel формата : Нет
Параметр GMC формата : Без точки перехода
Параметр матрицы формата : Выборочная
Идентификатор кодека : XVID
Идентификатор кодека/Подсказка : XviD
Продолжительность : 1 ч. 6 м.
Битрейт : 2723 Кбит/сек
Ширина : 720 пикселей
Высота : 544 пикселя
Соотношение сторон : 4:3
Частота кадров : 25,000 кадров/сек
Цветовое пространство : YUV
Субдискретизация насыщенности : 4:2:0
Битовая глубина : 8 бит
Тип развёртки : Прогрессивная
Метод сжатия : С потерями
Бит/(Пиксели*Кадры) : 0.278
Размер потока : 1,26 Гбайт (92%)
Библиотека кодирования : XviD 1.2.0.dev47 (UTC 2006-11-01)

Аудио
Идентификатор : 1
Формат : AC-3
Формат/Информация : Audio Coding 3
Расширение режима : CM (complete main)
Параметр Endianness формата : Big
Идентификатор кодека : 2000
Продолжительность : 1 ч. 6 м.
Вид битрейта : Постоянный
Битрейт : 224 Кбит/сек
Каналы : 2 канала
Расположение каналов : Front: L R
Частота : 48,0 КГц
Битовая глубина : 16 бит
Метод сжатия : С потерями
Задержка видео : 10 с.
Размер потока : 106 Мбайт (8%)
Выравнивание : Разделение по промежуткам
Продолжительность промежутка : 40 мс. (1,00 видеокадр)
Время предзагрузки промежутка : 500 мс.
Язык : Russian

piratbit.cc



Скачать Страсти по Анжелике через торрент http://pic.kartinco.top/images/1/jlq5akkjq7.jpg Скачать фильм Страсти по Анжелике через торрент бесплантно в хорошем качестве Описание: Эта достоверная история произошла в небольшом городке где-то в глубине России. Официантка Анжелика обладает странной особенностью ... 5 10 1
Info! Золотая раздача, скачанное не засчитывается.
Торрент: Зарегистрирован [2012-11-28 16:20] · скачан: 84 раз
Статус: √ проверено
Размер: 1.37 GB
Как cкачать? Как скачать Страсти по Анжелике через торрент | qTorrent


>> Регистрируемся здесь <<






Отзывы и комментарии о схеме читаем и пишем здесь: ---> Отзывы и комментарии о схеме

Новые благодарочки в телеграм довольных пользователей:
скриншот   скриншот   скриншот   скриншот   скриншот
    Дорогой пользователь! Огромная просьба, поблагодарите релизера, оцените раздачу и оставьте свои комментарий, если Вы скачали Страсти по Анжелике через торрент бесплатно! Внесите свою лепту в развитие PiratBit!
    Комментировать посты могут только пользователи прошедшие не сложную регистрацию
    Показать сообщения:    

    Страсти по Анжелике через торрент
    Скачать бесплатно Страсти по Анжелике
    Страсти по Анжелике скачать торрент
    Страсти по Анжелике смотреть онлайн
    Cкачать фильм Страсти по Анжелике бесплатно
    Страсти по Анжелике скачать торрент в хорошем качестве
    Страсти по Анжелике смотреть онлайн бесплатно в хорошем качестве


    Вы не можете начинать темы
    Вы не можете отвечать на сообщения
    Вы не можете редактировать свои сообщения
    Вы не можете удалять свои сообщения
    Вы не можете голосовать в опросах
    Вы не можете прикреплять файлы к сообщениям
    Вы можете скачивать файлы