iTunes

1+1

iTunes

мы

iTunes

1

iTunes

Чернобыль

1 сезон

Ральф против интернета

Лицензия

ПШазам

Лицензия

Игра престолов

Лицензия

30
pack

ВАЖНО

!!Акция!!

Alien_RageХит недели

RePack

Resident Evil 21

ИГРА 18+

pack

RePack

Metro:Exodus

!!Акция!!

Alien_Rage

RePack

fifa19

RePack

Assassins Creed: Odyssey

RePack

NEED FOR SPEED™ PAYBACK

3 сезон

9 сезон

Бесстыжие 9 сезон

Все сериалы

все сериалы на PB.wtf

RePack

FAR CRY 5
Ребята, катастрофически не хватает 7730р. для оплаты серверов за ИЮЛЬ (всвязи с блокировками трафик упал в 3 раза), 1-2р., выручайте.
  

Кавказская рулетка (Федор Попов) [2002 г., драма, военный, DVDRip, Оригинал] piratbit.cc

Кавказская рулетка через торрент piratbit.cc

Размер: 1.37 GB | Добавлен: 6 лет 8 мес. назад | Торрент скачан:59 раз
Скачать  

07-12-2012 15:55 Кавказская рулетка Скачать торрент  

Кавказская рулетка

Год выпуска: 2002
Страна: РОССИЯ
Жанр: драма, военный
Продолжительность: 01:22:33
Перевод: Оригинал

Режиссер: Федор Попов
Продюссер: Александр Котелевский, Федор Попов
Сценарий: Виктор Мережко, Алла Криницына

Премьера в мире: 5 июля 2003

зрителям, достигшим 16 лет

http://www.kinopoisk.ru/film/41233/

В ролях: Нина Усатова, Татьяна Черкасова, Анатолий Горячев, Сергей Гармаш, Татьяна Дружинина, Казбек Азади, Пилял Асхаков, Виктор Супрун, Владимир Аникин, Александр Боковиков, Александр Пивоваров.

Описание: Действие этой напряженной криминальной драмы разворачивается на фоне военных событий в Чечне. Русская девушка Анна, снайпер чеченских боевиков, и Мария, мать солдата, попавшего к ним в плен, встречаются в вагоне поезда, направляющегося в Россию.
Анна пытается вывезти из зоны боевых действий грудного сына, Мария хочет заставить ее вернуть ребенка в Чечню — тогда из плена выпустят ее сына. Ни одна из матерей не может уступить, ведь речь идет о жизни и смерти их детей…

Качество: DVDRip
Формат: AVI
Видео кодек: DivX
Аудио кодек: AC3
Видео: MPEG-4 Visual, DivX 5, 1981 Кбит/сек, 704х416 пикселя, 25,000 кадров/сек
Аудио#1: AC-3, 384 Кбит/сек, 6 каналов, 48,0 КГц, Russian





Формат : AVI
Формат/Информация : Audio Video Interleave
Размер файла : 1,37 Гбайт
Продолжительность : 1 ч. 22 м.
Общий поток : 2372 Кбит/сек
Программа кодирования : VirtualDubMod 1.5.4.1 (build 2178/release)
Библиотека кодирования : VirtualDubMod build 2178/release

Видео
Идентификатор : 0
Формат : MPEG-4 Visual
Параметр BVOP формата : 1
Параметр QPel формата : Нет
Параметр GMC формата : Без точки перехода
Параметр матрицы формата : Default (H.263)
Режим смешивания : Сжатый битовый поток
Идентификатор кодека : DX50
Идентификатор кодека/Подсказка : DivX 5
Продолжительность : 1 ч. 22 м.
Битрейт : 1981 Кбит/сек
Ширина : 704 пикселя
Высота : 416 пикселей
Соотношение сторон : 1,692
Частота кадров : 25,000 кадров/сек
Цветовое пространство : YUV
Субдискретизация насыщенности : 4:2:0
Битовая глубина : 8 бит
Тип развёртки : Прогрессивная
Метод сжатия : С потерями
Бит/(Пиксели*Кадры) : 0.271
Размер потока : 1,14 Гбайт (84%)
Библиотека кодирования : DivX 6.8.0 (UTC 2007-12-04)

Аудио
Идентификатор : 1
Формат : AC-3
Формат/Информация : Audio Coding 3
Расширение режима : CM (complete main)
Параметр Endianness формата : Big
Идентификатор кодека : 2000
Продолжительность : 1 ч. 22 м.
Вид битрейта : Постоянный
Битрейт : 384 Кбит/сек
Каналы : 6 каналов
Расположение каналов : Front: L C R, Side: L R, LFE
Частота : 48,0 КГц
Битовая глубина : 16 бит
Метод сжатия : С потерями
Размер потока : 227 Мбайт (16%)
Выравнивание : Разделение по промежуткам
Продолжительность промежутка : 96 мс. (2,40 видеокадра)
Время предзагрузки промежутка : 96 мс.
Язык : Russian

piratbit.cc



Скачать Кавказская рулетка через торрент http://pic.kartinco.top/images/1/qosgo62m4c.jpg Скачать фильм Кавказская рулетка через торрент бесплантно в хорошем качестве Описание: Действие этой напряженной криминальной драмы разворачивается на фоне военных событий в Чечне. Русская девушка Анна, снайпер ... 9.3 10 3
Info! Золотая раздача, скачанное не засчитывается.
Торрент: Зарегистрирован [2012-12-07 15:55] · скачан: 59 раз
Статус: √ проверено
Размер: 1.37 GB
Как cкачать? Как скачать Кавказская рулетка через торрент | qTorrent


>> Регистрируемся здесь <<






Отзывы и комментарии о схеме читаем и пишем здесь: ---> Отзывы и комментарии о схеме

Новые благодарочки в телеграм довольных пользователей:
скриншот   скриншот   скриншот   скриншот   скриншот
    Дорогой пользователь! Огромная просьба, поблагодарите релизера, оцените раздачу и оставьте свои комментарий, если Вы скачали Кавказская рулетка через торрент бесплатно! Внесите свою лепту в развитие PiratBit!
    Комментировать посты могут только пользователи прошедшие не сложную регистрацию
    Показать сообщения:    

    Кавказская рулетка через торрент
    Скачать бесплатно Кавказская рулетка
    Кавказская рулетка скачать торрент
    Кавказская рулетка смотреть онлайн
    Cкачать фильм Кавказская рулетка бесплатно
    Кавказская рулетка скачать торрент в хорошем качестве
    Кавказская рулетка смотреть онлайн бесплатно в хорошем качестве


    Вы не можете начинать темы
    Вы не можете отвечать на сообщения
    Вы не можете редактировать свои сообщения
    Вы не можете удалять свои сообщения
    Вы не можете голосовать в опросах
    Вы не можете прикреплять файлы к сообщениям
    Вы можете скачивать файлы