iTunes

1+1

iTunes

мы

iTunes

1

iTunes

Чернобыль

iTunes

Ральф против интернета

Лицензия

ПШазам

Лицензия

Игра престолов

Лицензия

30
pack

ВАЖНО

!!Акция!!

Alien_RageХит недели

RePack

Resident Evil 21

ИГРА 18+

pack

RePack

Metro:Exodus

!!Акция!!

Alien_Rage

RePack

fifa19

RePack

Assassins Creed: Odyssey

RePack

NEED FOR SPEED™ PAYBACK

3 сезон

9 сезон

Бесстыжие 9 сезон

Все сериалы

все сериалы на PB.wtf

RePack

FAR CRY 5
Ребята, катастрофически не хватает 7730р. для оплаты серверов за АВГУСТ (всвязи с блокировками трафик упал в 3 раза), 1-2р., выручайте.
  

Египтянин / The Egyptian (Майкл Кёртиц) [1954 г., история, драма, BDRip, MVO, лицензия] piratbit.cc

Египтянин через торрент piratbit.cc

Размер: 2.9 GB | Добавлен: 6 лет 8 мес. назад | Торрент скачан:19 раз
Скачать  

04-01-2013 19:02 Египтянин Скачать торрент  

Египтянин / The Egyptian

Год выпуска: 1954
Страна: США, 20th Century Fox Film Corporation
Жанр: история, драма
Продолжительность: 02:19:39
Перевод: Профессиональный многоголосый, Лицензия

Режиссер: Майкл Кёртиц
Продюссер: Дэррил Ф. Занук
Сценарий: Филип Данн, Кэйси Робинсон, Мика Валтари

Бюджет: $5 000 000
Премьера в мире: 24 августа 1954

PG-12



http://www.kinopoisk.ru/film/17589/

В ролях: Джин Симмонс, Виктор Мэтьюр, Джин Тирни, Майкл Уайлдинг, Белла Дарви, Питер Устинов, Эдмунд Пурдом, Джудит Эвелин, Генри Дэниелл, Джон Кэрредин, Карл Бентон Рейд, Томми Реттиг, Ричард Аллан, Майкл Ансара, Дон Блэкман, Джордж Честер, Анджела Кларк, Эдмунд Кобб, Генри Корден, Карл «Убийца» Дэвис, Мими Гибсон, Лео Гордон, Майкл Грэйнджер, Егиш Арут, Йен МакДональд, Тайлер МакДафф, Тайгер Джо Марш, Донна Мартелл, Майк Мазурки, Джордж Мелфорд, Рон Найман, Питер Рейнольдс, Лоуренс Риле, Пол Салата, Гарри Томпсон, Бруно ВеСота, Джоан Винфилд

Описание: Египет, XIV век до нашей эры. Страной правит фараон Аменхотеп IV, решивший изменить религию многобожия на поклонение единому божеству Атону. Культ Атона не был принят ни священнослужителями, ни жителями Египта и вызвал огромное негодование. В это же время Синух, молодой египтянин, выбирает профессию врача, и волею судьбы назначается лекарем самого фараона. Он становится невольным участником дворцовых интриг, заговоров и предательств... Решение экранизировать роман Мики Валтари, написанный с множеством научных деталей, наверняка потребовало определенной смелости, так как материал не давал возможностей для длинных, зрелищных прогонов. Книга рассказывает странную и необычную историю на фоне экзотического и в то же время резко реалистичного Египта 33 столетия тому назад. Жил тогда фараон, который верил в одного Бога, и врач, которому блеснул свет великой истины, и он пытался жить в соответствии с этим. На декорации и костюмы были выделены большие деньги — 4,2 млн долларов, и древней Египет ожил, оправдывая вложения. "Оскар" за лучшую операторскую работу в цвете.

Качество: BDRip
Формат: AVI
Видео кодек: XviD
Аудио кодек: AC3
Видео: MPEG-4 Visual, XviD, 1995 Кбит/сек, 720х288 пикселей, 23,976 кадра/сек
Аудио#1: AC-3, 192 Кбит/сек, 2 канала, 48,0 КГц
Аудио#2: AC-3, 384 Кбит/сек, 6 каналов, 48,0 КГц. Русский
Аудио#3: AC-3, 384 Кбит/сек, 6 каналов, 48,0 КГц. Английский





Формат : AVI
Формат/Информация : Audio Video Interleave
Профиль формата : OpenDML
Размер файла : 2,90 Гбайт
Продолжительность : 2 ч. 19 м.
Общий поток : 2975 Кбит/сек
Видео
Идентификатор : 0
Формат : MPEG-4 Visual
Профиль формата : Advanced Simple@L5
Параметр BVOP формата : 1
Параметр QPel формата : Нет
Параметр GMC формата : Без точки перехода
Параметр матрицы формата : Выборочная
Идентификатор кодека : XVID
Идентификатор кодека/Подсказка : XviD
Продолжительность : 2 ч. 19 м.
Битрейт : 1995 Кбит/сек
Ширина : 720 пикселей
Высота : 288 пикселей
Соотношение сторон : 2,500
Частота кадров : 23,976 кадра/сек
Цветовое пространство : YUV
Субдискретизация насыщенности : 4:2:0
Битовая глубина : 8 бит
Тип развёртки : Прогрессивная
Метод сжатия : С потерями
Бит/(Пиксели*Кадры) : 0.401
Размер потока : 1,95 Гбайт (67%)
Библиотека кодирования : XviD 65

Аудио #1
Идентификатор : 1
Формат : AC-3
Формат/Информация : Audio Coding 3
Расширение режима : CM (complete main)
Параметр Endianness формата : Big
Идентификатор кодека : 2000
Продолжительность : 2 ч. 19 м.
Вид битрейта : Постоянный
Битрейт : 192 Кбит/сек
Каналы : 2 канала
Расположение каналов : Front: L R
Частота : 48,0 КГц
Битовая глубина : 16 бит
Метод сжатия : С потерями
Размер потока : 192 Мбайт (6%)
Выравнивание : Разделение по промежуткам
Продолжительность промежутка : 42 мс. (1,00 видеокадр)
Время предзагрузки промежутка : 500 мс.

Аудио #2
Идентификатор : 2
Формат : AC-3
Формат/Информация : Audio Coding 3
Расширение режима : CM (complete main)
Параметр Endianness формата : Big
Идентификатор кодека : 2000
Продолжительность : 2 ч. 19 м.
Вид битрейта : Постоянный
Битрейт : 384 Кбит/сек
Каналы : 6 каналов
Расположение каналов : Front: L C R, Side: L R, LFE
Частота : 48,0 КГц
Битовая глубина : 16 бит
Метод сжатия : С потерями
Размер потока : 384 Мбайт (13%)
Выравнивание : Разделение по промежуткам
Продолжительность промежутка : 42 мс. (1,00 видеокадр)
Время предзагрузки промежутка : 500 мс.

Аудио #3
Идентификатор : 3
Формат : AC-3
Формат/Информация : Audio Coding 3
Расширение режима : CM (complete main)
Параметр Endianness формата : Big
Идентификатор кодека : 2000
Продолжительность : 2 ч. 19 м.
Вид битрейта : Постоянный
Битрейт : 384 Кбит/сек
Каналы : 6 каналов
Расположение каналов : Front: L C R, Side: L R, LFE
Частота : 48,0 КГц
Битовая глубина : 16 бит
Метод сжатия : С потерями
Размер потока : 384 Мбайт (13%)
Выравнивание : Разделение по промежуткам
Продолжительность промежутка : 42 мс. (1,00 видеокадр)
Время предзагрузки промежутка : 500 мс.



piratbit.cc



Скачать Египтянин через торрент http://pic.kartinco.top/images/1/ufr13m3xqp.jpg Скачать фильм Египтянин через торрент бесплантно в хорошем качестве Описание: Египет, XIV век до нашей эры. Страной правит фараон Аменхотеп IV, решивший изменить религию многобожия на поклонение единому ... 9.7 10 3
Info! Золотая раздача, скачанное не засчитывается.
Торрент: Зарегистрирован [2013-01-04 19:02] · скачан: 19 раз
Статус: √ проверено
Размер: 2.9 GB
Как cкачать? Как скачать Египтянин через торрент | qTorrent


>> Регистрируемся здесь <<






Отзывы и комментарии о схеме читаем и пишем здесь: ---> Отзывы и комментарии о схеме

Новые благодарочки в телеграм довольных пользователей:
скриншот   скриншот   скриншот   скриншот   скриншот
    Дорогой пользователь! Огромная просьба, поблагодарите релизера, оцените раздачу и оставьте свои комментарий, если Вы скачали Египтянин через торрент бесплатно! Внесите свою лепту в развитие PiratBit!
    Комментировать посты могут только пользователи прошедшие не сложную регистрацию
    Показать сообщения:    

    Египтянин через торрент
    Скачать бесплатно Египтянин
    Египтянин скачать торрент
    Египтянин смотреть онлайн
    Cкачать фильм Египтянин бесплатно
    Египтянин скачать торрент в хорошем качестве
    Египтянин смотреть онлайн бесплатно в хорошем качестве


    Вы не можете начинать темы
    Вы не можете отвечать на сообщения
    Вы не можете редактировать свои сообщения
    Вы не можете удалять свои сообщения
    Вы не можете голосовать в опросах
    Вы не можете прикреплять файлы к сообщениям
    Вы можете скачивать файлы